Extratorrent - The Biggest Bittorrent System
Friends
Friends

1) ProxyFix

Extratorrent > Categories > Anime > One Punch Man S02E06 (1080p WEBRip x265 HEVC 10bit AAC 2.0 theincognito) [UTR] torrent


Browse Anime torrents

One Punch Man S02E06 (1080p WEBRip x265 HEVC 10bit AAC 2.0 theincognito) [UTR] torrent


Download torrent: Download One Punch Man S02E06 (1080p WEBRip x265 HEVC 10bit AAC 2.0 theincognito) [UTR] torrent Magnet link Bookmark Torrent: One Punch Man S02E06 (1080p WEBRip x265 HEVC 10bit AAC 2.0 theincognito) [UTR]   One Punch Man S02E06 (1080p WEBRip x265 HEVC 10bit AAC 2.0 theincognito) [UTR] torrent
Info hash: 8055C4BA95AC25D4DF4C44E052EA8508C1750587
Category: Categories > Anime
Trackers:
View all torrent trackers >
Health:
 seeds: 9 ,  leechers: 3 |  Update >
Torrent language: Japanese Japanese
Total Size: 202.0 MB
Files List:
1    View torrent files >
Uploader:
theincognito
Torrent added: May 15, 2019, 7:30 am
Tags: theincognito, utr, one, punch, man, 1080p, x265
Users rating: ---, not rated. please login to rate.

Download One Punch Man S02E06 (1080p WEBRip x265 HEVC 10bit AAC 2.0 theincognito) [UTR] torrent



Torrent Description

Code:


Format : Matroska
Format version : Version 4
File size : 202 MiB
Duration : 23 min 53 s
Overall bit rate : 1 182 kb/s
Encoded date : UTC 2019-05-15 00:35:04
Writing application : mkvmerge v33.1.0 ('Primrose') 64-bit
Writing library : libebml v1.3.7 + libmatroska v1.5.0

Video
ID : 1
Format : HEVC
Format/Info : High Efficiency Video Coding
Format profile : Main @Main
Codec ID : V_MPEGH/ISO/HEVC
Duration : 23 min 50 s
Bit rate : 1 054 kb/s
Width : 1 920 pixels
Height : 1 080 pixels
Display aspect ratio : 16:9
Frame rate mode : Constant
Frame rate : 23.976 (24000/1001) FPS
Color space : YUV
Chroma subsampling : 4:2:0
Bit depth : 10 bits
Bits/(Pixel*Frame) : 0.021
Stream size : 180 MiB (89%)
Writing library : x265 3.0+1-ed72af837053:[Linux][GCC 6.3.0][64 bit] 10bit
Encoding settings : cpuid=1111039 / frame-threads=2 / wpp / no-pmode / no-pme / no-psnr / no-ssim / log-level=2 / input-csp=1 / input-res=1920x1080 / interlace=0 / total-frames=0 / level-idc=0 / high-tier=1 / uhd-bd=0 / ref=3 / no-allow-non-conformance / no-repeat-headers / annexb / no-aud / no-hrd / info / hash=0 / no-temporal-layers / open-gop / min-keyint=23 / keyint=250 / gop-lookahead=0 / bframes=8 / b-adapt=2 / b-pyramid / bframe-bias=0 / rc-lookahead=20 / lookahead-slices=6 / scenecut=40 / radl=0 / no-splice / no-intra-refresh / ctu=64 / min-cu-size=8 / no-rect / no-amp / max-tu-size=32 / tu-inter-depth=1 / tu-intra-depth=1 / limit-tu=0 / rdoq-level=0 / dynamic-rd=0.00 / no-ssim-rd / signhide / no-tskip / nr-intra=0 / nr-inter=0 / no-constrained-intra / strong-intra-smoothing / max-merge=2 / limit-refs=3 / no-limit-modes / me=1 / subme=2 / merange=57 / temporal-mvp / weightp / no-weightb / no-analyze-src-pics / deblock=1:1 / sao / no-sao-non-deblock / rd=3 / no-early-skip / rskip / no-fast-intra / no-tskip-fast / no-cu-lossless / no-b-intra / no-splitrd-skip / rdpenalty=0 / psy-rd=0.40 / psy-rdoq=0.00 / no-rd-refine / no-lossless / cbqpoffs=0 / crqpoffs=0 / rc=crf / crf=23.0 / qcomp=0.60 / qpstep=4 / stats-write=0 / stats-read=0 / ipratio=1.40 / pbratio=1.30 / aq-mode=3 / aq-strength=0.40 / cutree / zone-count=0 / no-strict-cbr / qg-size=32 / no-rc-grain / qpmax=69 / qpmin=0 / no-const-vbv / sar=1 / overscan=0 / videoformat=5 / range=0 / colorprim=2 / transfer=2 / colormatrix=2 / chromaloc=0 / display-window=0 / max-cll=0,0 / min-luma=0 / max-luma=1023 / log2-max-poc-lsb=8 / vui-timing-info / vui-hrd-info / slices=1 / no-opt-qp-pps / no-opt-ref-list-length-pps / no-multi-pass-opt-rps / scenecut-bias=0.05 / no-opt-cu-delta-qp / no-aq-motion / no-hdr / no-hdr-opt / no-dhdr10-opt / no-idr-recovery-sei / analysis-reuse-level=5 / scale-factor=0 / refine-intra=0 / refine-inter=0 / refine-mv=0 / refine-ctu-distortion=0 / no-limit-sao / ctu-info=0 / no-lowpass-dct / refine-analysis-type=0 / copy-pic=1 / max-ausize-factor=1.0 / no-dynamic-refine / no-single-sei / no-hevc-aq / qp-adaptation-range=1.00
Default : Yes
Forced : No

Audio
ID : 2
Format : AAC LC
Format/Info : Advanced Audio Codec Low Complexity
Codec ID : A_AAC-2
Duration : 23 min 50 s
Bit rate : 128 kb/s
Channel(s) : 2 channels
Channel layout : L R
Sampling rate : 44.1 kHz
Frame rate : 43.066 FPS (1024 SPF)
Compression mode : Lossy
Delay relative to video : -83 ms
Stream size : 21.8 MiB (11%)
Language : Japanese
Default : Yes
Forced : No

Text #1
ID : 3
Format : ASS
Codec ID : S_TEXT/ASS
Codec ID/Info : Advanced Sub Station Alpha
Duration : 23 min 48 s
Bit rate : 150 b/s
Count of elements : 374
Compression mode : Lossless
Stream size : 26.3 KiB (0%)
Title : English(US)
Language : English
Default : Yes
Forced : No

Text #2
ID : 4
Format : ASS
Codec ID : S_TEXT/ASS
Codec ID/Info : Advanced Sub Station Alpha
Duration : 23 min 48 s
Bit rate : 190 b/s
Count of elements : 369
Compression mode : Lossless
Stream size : 33.2 KiB (0%)
Title : Arabic
Language : Arabic
Default : No
Forced : No

Text #3
ID : 5
Format : ASS
Codec ID : S_TEXT/ASS
Codec ID/Info : Advanced Sub Station Alpha
Duration : 23 min 50 s
Bit rate : 130 b/s
Count of elements : 354
Compression mode : Lossless
Stream size : 22.9 KiB (0%)
Title : Espanol(Espana)
Language : Spanish
Default : No
Forced : No

Text #4
ID : 6
Format : ASS
Codec ID : S_TEXT/ASS
Codec ID/Info : Advanced Sub Station Alpha
Duration : 23 min 48 s
Bit rate : 153 b/s
Count of elements : 374
Compression mode : Lossless
Stream size : 26.8 KiB (0%)
Title : Portugues(Portugal)
Language : Portuguese
Default : No
Forced : No

Text #5
ID : 7
Format : ASS
Codec ID : S_TEXT/ASS
Codec ID/Info : Advanced Sub Station Alpha
Duration : 23 min 51 s
Bit rate : 238 b/s
Count of elements : 386
Compression mode : Lossless
Stream size : 41.7 KiB (0%)
Title : Russian
Language : Russian
Default : No
Forced : No

Download One Punch Man S02E06 (1080p WEBRip x265 HEVC 10bit AAC 2.0 theincognito) [UTR] torrent


Related Torrents


Comments   (please login to add your comment!)

waxing     il coraggio della verita     dyme     ball sucking     august ames 08 12     daddys     john wick 3 parabellum     state of     mag     13 reasons why     metal     may     archer     telugu dual audio hindi     britains busiest airport heathrow s05e01     lightning     anal club     sin of the city     voyeur amateurs     1000facials     1080p fled 1996     csi     adguard     office porn xxx     


Home - Browse Torrents