Extratorrent - The Biggest Bittorrent System
Friends
Friends

1) ProxyFix

Extratorrent > Categories > Movies > The Fakir of Venice (2019) Hindi 720p HDRip x264 AAC Exclusive BabaHD torrent


Browse Movies torrents

The Fakir of Venice (2019) Hindi 720p HDRip x264 AAC Exclusive BabaHD torrent


Download torrent: Download The Fakir of Venice (2019) Hindi 720p HDRip x264 AAC Exclusive BabaHD torrent Magnet link Bookmark Torrent: The Fakir of Venice (2019) Hindi 720p HDRip x264 AAC Exclusive BabaHD   The Fakir of Venice (2019) Hindi 720p HDRip x264 AAC Exclusive BabaHD torrent
Info hash: 847F60777F0B1A16B94AD3819F9B6784B7F7F64C
Category: Categories > Movies
Trackers:
View all torrent trackers >
Health:
 seeds: 9 ,  leechers: 4 |  Update >
Torrent language: Hindi Hindi
Total Size: 828.6 MB
Files List:
1    View torrent files >
Uploader:
Movienow7
Torrent added: April 9, 2019, 8:30 am
Tags: Drama, 720p
Users rating: ---, not rated. please login to rate.

Download The Fakir of Venice (2019) Hindi 720p HDRip x264 AAC Exclusive BabaHD torrent



Torrent Description

The Fakir of Venice (2019) Hindi 720p HDRip x264 AAC Exclusive BabaHD

Exclusive By www.BabaHD.com



Format                         : Matroska
Format version                 : Version 4 / Version 2
File size                      : 829 MiB
Duration                       : 1 h 32 min
Overall bit rate               : 1 247 kb/s


Video
ID                             : 1
Format                         : AVC
Format/Info                    : Advanced Video Codec
Format profile                 :
Format settings, CABAC         : Yes
Format settings, RefFrames     : 5 frames
Codec ID                       : V_MPEG4/ISO/AVC
Duration                       : 1 h 32 min
Bit rate                       : 1 152 kb/s
Width                          : 1 280 pixels
Height                         : 546 pixels
Display aspect ratio           : 2.35:1
Frame rate mode                : Constant
Frame rate                     : 25.000 FPS
Color space                    : YUV
Chroma subsampling             : 4:2:0
Bit depth                      : 8 bits
Scan type                      : Progressive
Bits/(Pixel*Frame)             : 0.066
Stream size                    : 763 MiB (92%)
Writing library                : x264 core 148
Default                        : Yes
Forced                         : No

Audio
ID                             : 2
Format                         : AAC
Format/Info                    : Advanced Audio Codec
Format profile                 : LC
Codec ID                       : A_AAC
Duration                       : 1 h 32 min
Bit rate                       : 96.0 kb/s
Channel(s)                     : 2 channels
Channel positions              : Front: L R
Sampling rate                  : 48.0 kHz
Frame rate                     : 46.875 FPS (1024 SPF)
Compression mode               : Lossy
Stream size                    : 63.9 MiB (8%)
Default                        : Yes
Forced                         : No









Download The Fakir of Venice (2019) Hindi 720p HDRip x264 AAC Exclusive BabaHD torrent


Related Torrents


Comments   (please login to add your comment!)

706     alaina dawson     twistyshard     anal squirt     hot hits pack     ictv     couch couch     bron s04     maya the bee 2014     newton 2017 hindi     wid     this     vita     576     season 3     england     327     18 xxx     arthur     l s     18 years daughter     filmora     alyssia loop     baby love     


Home - Browse Torrents